<?xml version="1.0" standalone="no"?>
<!DOCTYPE svg PUBLIC "-//W3C//DTD SVG 1.1//EN" "http://www.w3.org/Graphics/SVG/1.1/DTD/svg11.dtd">
<svg xmlns="http://www.w3.org/2000/svg">
<defs >
<font id="Muli" horiz-adv-x="559" ><font-face
    font-family="Muli Light"
    units-per-em="1000"
    panose-1="0 0 4 0 0 0 0 0 0 0"
    ascent="1005"
    descent="-250"
    alphabetic="0" />
<glyph unicode=" " glyph-name="space" horiz-adv-x="255" />
<glyph unicode="!" glyph-name="exclam" horiz-adv-x="222" d="M92 175L72 712H149L130 175H92ZM69 87H154V0H69V87Z" />
<glyph unicode="&quot;" glyph-name="quotedbl" horiz-adv-x="410" d="M86 438L69 712H143L127 438H86ZM284 438L267 712H341L325 438H284Z" />
<glyph unicode="#" glyph-name="numbersign" horiz-adv-x="606" d="M576 482H468L421 238H555V188H411L375 0H321L358 188H183L146 0H93L129 188H30V238H139L186 482H51V532H196L231 712H285L250 532H425L460 712H513L478 532H576V482ZM367 238L415 482H240L192 238H367Z" />
<glyph unicode="$" glyph-name="dollar" horiz-adv-x="600" d="M546 109T489 56T338 -6V-116H282V-7Q213 -4 154 20T49 88L75 137Q126 93 175 72T283 47V323Q214 341 169 360T94 418T64 519Q64 574 91 618T168 688T282 719V828H338V719Q397 714 449 690T541 627L515
578Q439 654 337 664V370Q404 353 446 335T517 281T546 188Q546 109 489 56ZM127 461T167 432T283 383V664Q210 659 169 621T127 519Q127 461 167 432ZM407 57T445 93T483 189Q483 240 446 265T337 310V49Q407 57 445 93Z" />
<glyph unicode="%" glyph-name="percent" horiz-adv-x="932" d="M149 284T105 339T61 502Q61 610 105 664T228 719Q308 719 352 665T397 502Q397 394 352 339T228 284Q149 284 105 339ZM293 0H229L640 712H704L293 0ZM284 332T310 373T337 502Q337 589 311 630T228
672Q174 672 147 631T120 502Q120 414 146 373T228 332Q284 332 310 373ZM625 -7T581 48T536 211Q536 320 580 374T704 428Q784 428 828 374T872 211Q872 103 828 48T704 -7Q625 -7 581 48ZM759 41T785 82T812 211Q812 298 786 339T704 380Q649 380 623 339T596
211Q596 123 622 82T704 41Q759 41 785 82Z" />
<glyph unicode="&amp;" glyph-name="ampersand" horiz-adv-x="663" d="M581 78T667 34L631 -8Q549 34 495 91Q453 43 399 18T280 -7Q215 -7 165 15T87 79T59 175Q59 239 98 291T229 399Q180 458 162 494T143 569Q143 637 188 678T309 719Q379 719 420 682T461
581Q461 529 429 489T312 391L491 181Q540 273 543 413H601Q597 248 528 137Q581 78 667 34ZM205 538T220 510T278 430Q350 477 376 508T403 577Q403 618 378 643T309 668Q262 668 234 641T205 569Q205 538 220 510ZM390 45T460 131L264 360Q184 309 152 268T120
176Q120 116 164 81T283 45Q390 45 460 131Z" />
<glyph unicode="&apos;" glyph-name="quotesingle" horiz-adv-x="212" d="M86 438L69 712H143L127 438H86Z" />
<glyph unicode="(" glyph-name="parenleft" horiz-adv-x="300" d="M158 -71T132 39T106 266Q106 381 132 491T213 712H267Q214 590 192 482T169 266Q169 158 191 49T267 -182H214Q158 -71 132 39Z" />
<glyph unicode=")" glyph-name="parenright" horiz-adv-x="300" d="M34 -182Q86 -60 108 49T131 266Q131 374 109 482T33 712H87Q142 601 168 491T194 266Q194 149 168 39T86 -182H34Z" />
<glyph unicode="*" glyph-name="asterisk" horiz-adv-x="453" d="M134 369L93 399L192 527L36 574L52 622L205 568L200 730H250L246 568L400 622L415 574L260 527L359 399L318 369L226 504L134 369Z" />
<glyph unicode="+" glyph-name="plus" horiz-adv-x="600" d="M546 312V261H325V40H275V261H54V312H275V533H325V312H546Z" />
<glyph unicode="," glyph-name="comma" horiz-adv-x="222" d="M154 87V23Q154 -15 142 -47T102 -107L70 -82Q104 -44 108 0H69V87H154Z" />
<glyph unicode="-" glyph-name="hyphen" horiz-adv-x="424" d="M75 242V295H349V242H75Z" />
<glyph unicode="." glyph-name="period" horiz-adv-x="222" d="M69 87H154V0H69V87Z" />
<glyph unicode="/" glyph-name="slash" horiz-adv-x="272" d="M38 -54H-22L233 748H294L38 -54Z" />
<glyph unicode="0" glyph-name="zero" horiz-adv-x="600" d="M180 -8T118 84T55 356Q55 535 117 627T300 720Q421 720 483 628T545 357Q545 178 483 85T300 -8Q180 -8 118 84ZM392 47T436 122T481 357Q481 516 437 590T300 665Q208 665 164 590T119 357Q119 199
163 123T300 47Q392 47 436 122Z" />
<glyph unicode="1" glyph-name="one" horiz-adv-x="600" d="M355 54H512V0H135V54H293V630L146 535V598L320 712H355V54Z" />
<glyph unicode="2" glyph-name="two" horiz-adv-x="600" d="M537 54V0H88V46L341 329Q395 391 419 438T443 533Q443 597 407 631T302 666Q197 666 97 580L71 629Q113 670 176 695T302 720Q397 720 451 671T506 536Q506 475 478 417T385 288L171 54H537Z" />
<glyph unicode="3" glyph-name="three" horiz-adv-x="600" d="M455 348T488 304T521 192Q521 100 461 47T296 -7Q228 -7 166 17T60 84L86 133Q135 90 186 69T296 47Q374 47 416 84T459 192Q459 334 283 334H207V389H268Q352 389 397 427T443 538Q443 599 406 632T302
666Q197 666 97 580L71 629Q114 672 175 696T303 720Q396 720 451 672T506 541Q506 479 476 433T392 366Q455 348 488 304Z" />
<glyph unicode="4" glyph-name="four" horiz-adv-x="600" d="M562 215V162H452V0H390V162H53V209L401 712H452V215H562ZM122 215H390V602L122 215Z" />
<glyph unicode="5" glyph-name="five" horiz-adv-x="600" d="M394 442T444 414T521 335T548 218Q548 152 520 101T438 22T315 -7Q252 -7 190 17T84 84L110 133Q210 47 316 47Q394 47 439 93T485 218Q485 293 440 340T322 388Q266 388 224 366T151 296H103V712H521V659H165V375Q194
407 235 424T326 442Q394 442 444 414Z" />
<glyph unicode="6" glyph-name="six" horiz-adv-x="600" d="M390 443T441 415T520 335T548 218Q548 153 519 102T439 21T322 -8Q196 -8 128 81T59 336Q59 518 129 619T327 720Q387 720 444 697T547 629L521 580Q470 624 423 645T327 666Q230 666 176 579T121 336V309Q143
371 198 407T324 443Q390 443 441 415ZM394 46T439 93T485 218Q485 294 439 341T319 388Q269 388 230 367T168 306T146 218Q146 141 194 94T320 46Q394 46 439 93Z" />
<glyph unicode="7" glyph-name="seven" horiz-adv-x="600" d="M71 712H529V666L191 0H124L460 658H71V712Z" />
<glyph unicode="8" glyph-name="eight" horiz-adv-x="600" d="M472 347T511 300T550 187Q550 97 483 45T300 -7Q184 -7 117 45T50 187Q50 252 90 299T199 365Q135 384 101 428T66 532Q66 588 95 631T177 697T300 720Q369 720 422 697T505 631T534 532Q534 472
500 428T401 365Q472 347 511 300ZM129 468T175 430T300 384Q379 392 425 430T471 529Q471 593 426 629T300 666Q219 666 174 630T129 529Q129 468 175 430ZM391 47T439 83T487 190Q487 254 436 292T300 338Q216 330 165 292T113 190Q113 120 161 84T300 47Q391
47 439 83Z" />
<glyph unicode="9" glyph-name="nine" horiz-adv-x="600" d="M405 720T473 631T542 376Q542 194 472 93T274 -8Q214 -8 157 15T54 83L80 132Q132 87 178 67T274 46Q371 46 425 133T480 376V404Q458 341 403 305T277 269Q211 269 160 297T81 377T53 494Q53 559
82 610T162 691T279 720Q405 720 473 631ZM332 324T371 345T433 406T455 494Q455 571 407 618T281 666Q207 666 162 619T116 494Q116 418 162 371T282 324Q332 324 371 345Z" />
<glyph unicode=":" glyph-name="colon" horiz-adv-x="222" d="M69 490H154V404H69V490ZM69 87H154V0H69V87Z" />
<glyph unicode=";" glyph-name="semicolon" horiz-adv-x="222" d="M69 490H154V404H69V490ZM69 87H154V23Q154 -15 142 -47T102 -107L70 -82Q104 -44 108 0H69V87Z" />
<glyph unicode="&lt;" glyph-name="less" horiz-adv-x="600" d="M546 540V484L117 287L546 89V33L54 262V312L546 540Z" />
<glyph unicode="=" glyph-name="equal" horiz-adv-x="600" d="M546 413V362H54V413H546ZM546 211V160H54V211H546Z" />
<glyph unicode="&gt;" glyph-name="greater" horiz-adv-x="600" d="M54 540L546 312V262L54 33V89L483 287L54 484V540Z" />
<glyph unicode="?" glyph-name="question" horiz-adv-x="440" d="M119 701T155 710T226 719Q310 719 361 677T412 566Q412 513 390 473T321 378Q276 325 252 284T223 188L222 175H185V192Q185 258 208 305T276 408Q313 456 330 489T348 563Q348 610 315 637T225
665Q158 665 87 624V684Q119 701 155 710ZM161 0V87H246V0H161Z" />
<glyph unicode="@" glyph-name="at" horiz-adv-x="931" d="M348 -151T252 -98T104 53T52 278Q52 409 107 508T259 662T476 717Q605 717 696 663T834 525T880 348Q880 246 850 183T774 93T678 65Q623 65 594 88T563 156H561Q536 114 496 90T406 65Q342 65 301 110T260
239Q260 307 286 368T361 466T474 503Q524 503 560 479T606 417H607L619 490H673L624 207Q621 188 621 172Q621 138 637 124T688 110Q719 110 751 133T804 210T826 348Q826 426 788 499T670 619T476 666Q371 666 287 619T154 483T105 278Q105 163 149 78T278 -53T477
-100Q564 -100 629 -74T730 0H802Q759 -71 674 -111T477 -151Q348 -151 252 -98ZM470 110T509 142T569 225T590 333Q590 393 560 425T479 457Q428 457 390 426T332 346T312 243Q312 179 342 145T417 110Q470 110 509 142Z" />
<glyph unicode="A" glyph-name="A" horiz-adv-x="727" d="M637 0L556 190H172L90 0H26L336 712H392L701 0H637ZM195 244H532L364 637L195 244Z" />
<glyph unicode="B" glyph-name="B" horiz-adv-x="676" d="M543 349T577 305T611 193Q611 100 550 50T377 0H92V712H367Q476 712 535 664T594 525Q594 467 565 426T482 365Q543 349 577 305ZM153 389H358Q444 389 488 424T532 526Q532 659 358 659H153V389ZM463
53T505 87T548 191Q548 334 373 334H153V53H373Q463 53 505 87Z" />
<glyph unicode="C" glyph-name="C" horiz-adv-x="684" d="M289 -8T216 35T104 161T65 357Q65 469 104 551T216 676T388 720Q462 720 523 697T630 627L604 578Q553 624 502 644T388 665Q265 665 197 585T129 357Q129 209 196 128T388 47Q451 47 502 67T604 134L630
85Q585 39 524 16T388 -8Q289 -8 216 35Z" />
<glyph unicode="D" glyph-name="D" horiz-adv-x="739" d="M92 712H321Q491 712 583 620T675 357Q675 186 583 93T321 0H92V712ZM318 54Q463 54 536 130T609 357Q609 658 318 658H154V54H318Z" />
<glyph unicode="E" glyph-name="E" horiz-adv-x="585" d="M92 0V712H531V659H153V389H511V334H153V53H531V0H92Z" />
<glyph unicode="F" glyph-name="F" horiz-adv-x="558" d="M92 0V712H521V659H154V389H501V334H154V0H92Z" />
<glyph unicode="G" glyph-name="G" horiz-adv-x="726" d="M642 365V40Q603 19 535 6T398 -8Q294 -8 219 35T105 161T65 357Q65 470 104 552T218 677T393 720Q544 720 635 627L609 578Q558 624 507 644T392 665Q266 665 198 585T129 357Q129 206 198 126T399 46Q500
46 586 79V312H398V365H642Z" />
<glyph unicode="H" glyph-name="H" horiz-adv-x="762" d="M608 712H670V0H608V334H154V0H92V712H154V389H608V712Z" />
<glyph unicode="I" glyph-name="I" horiz-adv-x="246" d="M92 0V712H154V0H92Z" />
<glyph unicode="J" glyph-name="J" horiz-adv-x="314" d="M-7 -123Q38 -131 64 -131Q117 -131 138 -101T160 3V712H222V1Q222 -98 188 -142T74 -186Q41 -186 -7 -178V-123Z" />
<glyph unicode="K" glyph-name="K" horiz-adv-x="619" d="M621 0H537L154 341V0H92V712H154V382L518 712H600L216 364L621 0Z" />
<glyph unicode="L" glyph-name="L" horiz-adv-x="538" d="M92 0V712H154V54H522V0H92Z" />
<glyph unicode="M" glyph-name="M" horiz-adv-x="848" d="M704 712H756V0H698V570L448 0H402L150 565L151 0H93V712H144L426 74L704 712Z" />
<glyph unicode="N" glyph-name="N" horiz-adv-x="742" d="M592 712H650V0H602L150 607V0H92V712H141L592 105V712Z" />
<glyph unicode="O" glyph-name="O" horiz-adv-x="765" d="M285 -8T214 36T104 162T65 356Q65 468 103 550T212 676T382 720Q480 720 552 676T662 551T700 357Q700 245 662 163T552 36T382 -8Q285 -8 214 36ZM502 47T568 128T635 357Q635 505 569 585T382 665Q262
665 196 585T129 357Q129 210 195 129T382 47Q502 47 568 128Z" />
<glyph unicode="P" glyph-name="P" horiz-adv-x="644" d="M92 712H366Q473 712 534 660T595 517Q595 425 534 373T366 320H154V0H92V712ZM362 374Q446 374 489 411T532 517Q532 585 489 622T362 659H154V374H362Z" />
<glyph unicode="Q" glyph-name="Q" horiz-adv-x="765" d="M535 -77T617 -146L574 -191Q535 -160 494 -110T421 -6Q395 -8 382 -8Q285 -8 214 36T104 162T65 356Q65 468 103 550T212 676T382 720Q480 720 552 676T662 551T700 357Q700 221 645 130T488 7Q535 -77
617 -146ZM129 210T195 129T382 47Q502 47 568 128T635 357Q635 505 569 585T382 665Q262 665 196 585T129 357Q129 210 195 129Z" />
<glyph unicode="R" glyph-name="R" horiz-adv-x="688" d="M640 0H576L487 237Q470 285 440 301T353 318H154V0H92V712H367Q478 712 539 662T600 517Q600 448 564 401T459 335Q490 330 512 309T549 247L640 0ZM363 372Q538 372 538 518Q538 659 363 659H153V372H363Z" />
<glyph unicode="S" glyph-name="S" horiz-adv-x="613" d="M229 -8T165 14T50 85L76 134Q129 87 183 67T313 47Q403 47 453 84T503 188Q503 227 479 251T417 290T317 318Q235 336 184 355T97 414T62 518Q62 578 93 624T181 695T315 720Q388 720 450 697T557 627L531
578Q481 623 429 644T315 665Q225 665 175 626T124 519Q124 460 168 431T297 382L326 375Q406 356 453 338T533 284T566 188Q566 130 535 86T447 17T313 -8Q229 -8 165 14Z" />
<glyph unicode="T" glyph-name="T" horiz-adv-x="596" d="M267 0V658H12V712H584V658H329V0H267Z" />
<glyph unicode="U" glyph-name="U" horiz-adv-x="726" d="M228 -8T158 63T87 274V712H149V267Q149 47 364 47Q469 47 523 102T578 267V712H639V274Q639 135 569 64T364 -8Q228 -8 158 63Z" />
<glyph unicode="V" glyph-name="V" horiz-adv-x="687" d="M616 712H680L372 0H315L7 712H72L344 80L616 712Z" />
<glyph unicode="W" glyph-name="W" horiz-adv-x="1107" d="M1008 712H1070L822 0H768L554 613L339 0H286L38 712H100L314 86L530 712L579 711L794 88L1008 712Z" />
<glyph unicode="X" glyph-name="X" horiz-adv-x="644" d="M358 365L628 0H555L322 317L91 0H16L287 366L31 712H104L323 412L542 712H614L358 365Z" />
<glyph unicode="Y" glyph-name="Y" horiz-adv-x="597" d="M604 712L329 293V0H267V295L-8 712H64L299 349L534 712H604Z" />
<glyph unicode="Z" glyph-name="Z" horiz-adv-x="590" d="M116 53H552V0H44V45L470 659H44V712H542V667L116 53Z" />
<glyph unicode="[" glyph-name="bracketleft" horiz-adv-x="300" d="M112 -182V712H294V662H173V-131H294V-182H112Z" />
<glyph unicode="\" glyph-name="backslash" horiz-adv-x="272" d="M233 -54L-22 748H38L294 -54H233Z" />
<glyph unicode="]" glyph-name="bracketright" horiz-adv-x="300" d="M188 -182H6V-131H127V662H6V712H188V-182Z" />
<glyph unicode="^" glyph-name="asciicircum" horiz-adv-x="600" d="M553 141H498L300 568L102 141H48L275 634H325L553 141Z" />
<glyph unicode="_" glyph-name="underscore" horiz-adv-x="505" d="M6 -43V0H499V-43H6Z" />
<glyph unicode="`" glyph-name="grave" horiz-adv-x="300" d="M128 556L-4 759H74L175 556H128Z" />
<glyph unicode="a" glyph-name="a" horiz-adv-x="591" d="M508 501V0H447V96Q425 46 381 20T274 -7Q207 -7 157 24T79 114T51 251Q51 329 79 388T157 480T274 513Q335 513 379 487T447 411V501H508ZM361 47T404 101T447 253Q447 352 404 406T282 460Q203 460 159
405T115 251Q115 154 159 101T283 47Q361 47 404 101Z" />
<glyph unicode="b" glyph-name="b" horiz-adv-x="591" d="M383 513T434 481T512 391T540 255Q540 177 512 118T434 26T317 -7Q255 -7 211 20T144 98V0H83V736H143V407Q165 459 210 486T317 513Q383 513 434 481ZM388 47T432 102T476 255Q476 352 432 406T309 460Q230
460 187 406T144 253Q144 154 187 101T310 47Q388 47 432 102Z" />
<glyph unicode="c" glyph-name="c" horiz-adv-x="490" d="M215 -7T162 25T80 115T51 251Q51 329 80 388T163 480T288 513Q339 513 385 496T462 447L438 399Q399 431 364 445T290 460Q209 460 162 405T115 251Q115 155 161 101T290 47Q328 47 363 61T438 107L462
60Q430 29 383 11T286 -7Q215 -7 162 25Z" />
<glyph unicode="d" glyph-name="d" horiz-adv-x="591" d="M508 736V0H447V96Q425 46 381 20T274 -7Q208 -7 158 25T79 117T51 255Q51 333 78 391T156 481T274 513Q335 513 379 487T447 411V736H508ZM361 47T404 101T447 253Q447 351 404 405T283 460Q203 460 159
406T115 255Q115 157 159 102T282 47Q361 47 404 101Z" />
<glyph unicode="e" glyph-name="e" horiz-adv-x="543" d="M115 258V255Q115 154 161 101T297 47Q387 47 462 109L486 61Q453 30 402 12T297 -7Q183 -7 117 62T51 252Q51 329 80 388T163 480T285 513Q384 513 439 449T495 271V258H115ZM216 463T173 422T119 305H437Q431
382 392 422T285 463Q216 463 173 422Z" />
<glyph unicode="f" glyph-name="f" horiz-adv-x="324" d="M213 685T190 662T167 580V501H296V452H167V0H106V452H8V501H106V591Q106 666 143 703T245 740Q275 740 307 732V677Q280 685 256 685Q213 685 190 662Z" />
<glyph unicode="g" glyph-name="g" horiz-adv-x="595" d="M512 501V-2Q512 -111 458 -167T299 -223Q187 -223 104 -169L116 -116Q165 -145 206 -157T300 -169Q375 -169 413 -128T452 -8V121Q429 70 384 43T276 15Q210 15 159 46T80 134T51 264Q51 338 79 394T159
482T276 513Q339 513 383 487T451 411V501H512ZM362 70T406 122T451 264Q451 355 407 407T284 460Q205 460 160 408T115 264Q115 173 160 122T284 70Q362 70 406 122Z" />
<glyph unicode="h" glyph-name="h" horiz-adv-x="578" d="M497 513T497 319V0H436V315Q436 390 406 425T310 460Q235 460 189 414T143 290V0H83V736H143V414Q167 463 212 488T316 513Q497 513 497 319Z" />
<glyph unicode="i" glyph-name="i" horiz-adv-x="228" d="M83 0V501H143V0H83ZM74 708H155V630H74V708Z" />
<glyph unicode="j" glyph-name="j" horiz-adv-x="228" d="M-25 -164T-3 -164Q38 -164 60 -141T83 -59V501H143V-70Q143 -145 107 -182T8 -219Q-20 -219 -52 -211V-156Q-25 -164 -3 -164ZM74 708H155V630H74V708Z" />
<glyph unicode="k" glyph-name="k" horiz-adv-x="498" d="M502 0H419L143 244V0H83V736H143V268L395 501H474L212 260L502 0Z" />
<glyph unicode="l" glyph-name="l" horiz-adv-x="228" d="M83 0V736H143V0H83Z" />
<glyph unicode="m" glyph-name="m" horiz-adv-x="869" d="M789 513T789 319V0H728V315Q728 391 701 425T615 460Q546 460 507 414T467 289V0H406V315Q406 391 379 425T292 460Q224 460 184 414T143 289V0H83V362Q83 440 75 501H133L141 411Q162 461 203 487T300
513Q421 513 455 415Q476 461 520 487T623 513Q789 513 789 319Z" />
<glyph unicode="n" glyph-name="n" horiz-adv-x="578" d="M497 513T497 319V0H436V315Q436 390 406 425T310 460Q235 460 189 414T143 290V0H83V362Q83 440 75 501H133L141 409Q164 460 210 486T316 513Q497 513 497 319Z" />
<glyph unicode="o" glyph-name="o" horiz-adv-x="562" d="M213 -7T161 25T80 116T51 253Q51 331 79 390T160 481T282 513Q350 513 402 481T482 390T511 253Q511 175 483 116T402 25T282 -7Q213 -7 161 25ZM361 47T404 100T448 253Q448 351 404 405T282 460Q203
460 159 406T115 253Q115 153 158 100T281 47Q361 47 404 100Z" />
<glyph unicode="p" glyph-name="p" horiz-adv-x="591" d="M383 513T433 481T512 389T540 251Q540 173 513 115T434 25T317 -7Q254 -7 210 20T143 100V-216H83V362Q83 440 75 501H133L141 403Q163 456 208 484T317 513Q383 513 433 481ZM388 47T432 100T476 251Q476
349 432 404T310 460Q230 460 187 406T144 253Q144 155 187 101T309 47Q388 47 432 100Z" />
<glyph unicode="q" glyph-name="q" horiz-adv-x="591" d="M515 501Q508 437 508 362V-216H447V96Q425 46 381 20T274 -7Q207 -7 157 24T79 114T51 251Q51 329 79 388T157 480T274 513Q338 513 383 485T450 405L459 501H515ZM361 47T404 101T447 253Q447 352 404
406T282 460Q203 460 159 405T115 251Q115 154 159 101T283 47Q361 47 404 101Z" />
<glyph unicode="r" glyph-name="r" horiz-adv-x="349" d="M324 513T343 509L340 454Q321 458 294 458Q218 458 181 410T143 294V0H83V362Q83 440 75 501H133L141 408Q160 459 202 486T299 513Q324 513 343 509Z" />
<glyph unicode="s" glyph-name="s" horiz-adv-x="494" d="M124 -7T53 60L75 107Q115 74 155 60T249 46Q311 46 343 67T376 130Q376 164 355 183T284 215L199 234Q139 248 105 284T70 368Q70 434 120 473T255 513Q308 513 353 496T429 447L406 400Q337 460 255
460Q197 460 165 437T133 373Q133 339 153 318T217 287L303 266Q438 236 438 133Q438 70 386 32T246 -7Q124 -7 53 60Z" />
<glyph unicode="t" glyph-name="t" horiz-adv-x="337" d="M168 452V154Q168 94 191 71T259 48Q287 48 313 57V2Q281 -6 248 -6Q182 -6 145 31T107 142V452H8V501H107V634L168 657V501H316V452H168Z" />
<glyph unicode="u" glyph-name="u" horiz-adv-x="569" d="M486 501V0H427V91Q403 43 359 18T258 -7Q170 -7 125 42T80 187V501H140V191Q140 117 170 82T263 47Q337 47 381 93T425 217V501H486Z" />
<glyph unicode="v" glyph-name="v" horiz-adv-x="525" d="M446 501H508L293 0H230L18 501H83L264 61L446 501Z" />
<glyph unicode="w" glyph-name="w" horiz-adv-x="863" d="M767 501H829L647 0H584L432 423L279 0H215L34 501H99L247 73L403 501H464L615 73L767 501Z" />
<glyph unicode="x" glyph-name="x" horiz-adv-x="528" d="M302 258L508 0H433L264 211L97 0H21L227 258L32 501H108L264 305L420 501H496L302 258Z" />
<glyph unicode="y" glyph-name="y" horiz-adv-x="525" d="M508 501L272 -52Q237 -134 185 -172T53 -227L41 -179Q113 -162 149 -135T211 -50L232 -1L18 501H83L264 61L446 501H508Z" />
<glyph unicode="z" glyph-name="z" horiz-adv-x="515" d="M129 50H469V0H51V42L384 452H63V501H458V455L129 50Z" />
<glyph unicode="{" glyph-name="braceleft" horiz-adv-x="337" d="M210 324T190 299T139 266Q169 259 189 233T210 164V-54Q210 -92 227 -111T276 -131H331V-182H274Q213 -182 181 -150T149 -57V156Q149 198 133 218T75 247L52 252V280L75 284Q117 292 133 312T149
375V587Q149 647 183 679T274 712H331V662H276Q245 662 228 642T210 584V368Q210 324 190 299Z" />
<glyph unicode="|" glyph-name="bar" horiz-adv-x="256" d="M97 -182V712H158V-182H97Z" />
<glyph unicode="}" glyph-name="braceright" horiz-adv-x="338" d="M286 280V252L262 247Q220 239 204 219T188 156V-57Q188 -118 157 -150T64 -182H6V-131H62Q93 -131 110 -112T127 -54V164Q127 207 148 233T198 266Q168 273 148 298T127 368V584Q127 622 110
642T62 662H6V712H64Q120 712 154 680T188 587V375Q188 333 204 313T262 284L286 280Z" />
<glyph unicode="~" glyph-name="asciitilde" horiz-adv-x="600" d="M546 316Q504 220 418 220Q385 220 354 232T280 268Q248 286 227 295T185 304Q151 304 131 286T97 235L54 258Q94 353 182 353Q215 353 245 341T320 306Q352 288 373 279T415 270Q448 270 468
288T503 337L546 316Z" />
<glyph unicode="&#xa0;" glyph-name="uni00A0" horiz-adv-x="255" />
<glyph unicode="&#xa1;" glyph-name="exclamdown" horiz-adv-x="222" d="M69 404V490H154V404H69ZM92 315H130L149 -182H72L92 315Z" />
<glyph unicode="&#xa2;" glyph-name="cent" horiz-adv-x="600" d="M507 60Q479 32 439 15T353 -6V-119H298V-5Q206 7 151 76T96 251Q96 357 151 427T298 511V625H353V512Q399 509 439 492T507 447L484 399Q417 453 353 459V48Q386 51 417 65T484 107L507 60ZM160
167T196 115T298 50V457Q233 444 197 390T160 251Q160 167 196 115Z" />
<glyph unicode="&#xa3;" glyph-name="sterling" horiz-adv-x="600" d="M215 151T199 114T143 54H561V0H47V43Q104 69 129 104T154 195V331H47V382H154V528Q154 617 204 668T342 720Q404 720 461 696T563 627L537 578Q495 620 445 643T343 666Q281 666 248 629T215
523V382H403V331H215V215Q215 151 199 114Z" />
<glyph unicode="&#xa4;" glyph-name="currency" horiz-adv-x="600" d="M543 335T543 247Q543 160 490 91L543 36L503 -4L450 51Q419 25 381 11T301 -3Q216 -3 148 52L94 -4L55 36L110 92Q58 160 58 247Q58 334 110 402L55 459L94 499L148 442Q215 498 301 498Q342
498 380 484T450 444L503 499L543 459L490 404Q543 335 543 247ZM350 50T392 76T460 148T485 247Q485 301 460 346T393 417T300 444Q249 444 207 418T140 346T115 247Q115 193 139 148T206 77T300 50Q350 50 392 76Z" />
<glyph unicode="&#xa5;" glyph-name="yen" horiz-adv-x="600" d="M603 712L364 384H528V334H331V232H528V182H331V0H269V182H72V232H269V334H72V384H237L-3 712H69L300 391L531 712H603Z" />
<glyph unicode="&#xa6;" glyph-name="brokenbar" horiz-adv-x="256" d="M97 375V712H158V375H97ZM97 -182V156H158V-182H97Z" />
<glyph unicode="&#xa7;" glyph-name="section" horiz-adv-x="529" d="M485 152T470 119T429 62Q445 29 445 -16Q445 -95 394 -142T258 -189Q142 -189 66 -123L90 -76Q133 -108 171 -121T258 -135Q318 -135 351 -105T385 -17Q385 28 362 58T285 115L198 159Q114
200 79 242T44 344Q44 380 59 413T99 470Q85 501 85 546Q85 625 136 672T274 719Q321 719 365 701T439 653L416 606Q378 637 343 651T273 666Q212 666 179 636T146 547Q146 503 168 474T244 416L331 372Q415 328 450 286T485 186Q485 152 470 119ZM366 138T398
105Q425 142 425 186Q425 223 400 252T311 314L228 358Q161 394 131 425Q105 391 105 344Q105 308 130 280T219 217L301 173Q366 138 398 105Z" />
<glyph unicode="&#xa8;" glyph-name="dieresis" horiz-adv-x="300" d="M30 695H105V621H30V695ZM198 695H273V621H198V695Z" />
<glyph unicode="&#xa9;" glyph-name="copyright" horiz-adv-x="823" d="M312 -5T229 43T99 173T51 357Q51 458 98 540T228 669T412 717Q513 717 595 670T725 540T773 357Q773 256 726 174T595 43T412 -5Q312 -5 229 43ZM501 35T573 77T688 193T730 357Q730 446
688 519T574 635T412 677Q323 677 250 635T135 520T93 357Q93 267 135 194T250 78T412 35Q501 35 573 77ZM326 138T272 197T217 357Q217 457 271 515T418 574Q459 574 499 559T568 518L546 475Q514 501 484 513T420 525Q352 525 316 482T279 357Q279 275 315 231T420
187Q454 187 484 199T546 237L568 194Q539 168 499 153T418 138Q326 138 272 197Z" />
<glyph unicode="&#xaa;" glyph-name="ordfeminine" horiz-adv-x="331" d="M224 717T253 689T283 599V417H227V463Q215 439 192 426T139 412Q94 412 64 438T34 501Q34 534 50 553T105 580T212 588H227V606Q227 642 212 657T165 672Q111 672 66 640L47 682Q71 698
103 707T167 717Q224 717 253 689ZM181 455T204 478T227 538V555H216Q164 555 137 550T101 535T91 506Q91 485 107 470T148 455Q181 455 204 478Z" />
<glyph unicode="&#xab;" glyph-name="guillemotleft" horiz-adv-x="420" d="M159 89L28 267L161 447H221L93 268L218 89H159ZM330 89L199 267L332 447H392L264 268L389 89H330Z" />
<glyph unicode="&#xac;" glyph-name="logicalnot" horiz-adv-x="600" d="M546 418V156H498V368H54V418H546Z" />
<glyph unicode="&#xad;" glyph-name="uni00AD" horiz-adv-x="424" d="M75 242V295H349V242H75Z" />
<glyph unicode="&#xae;" glyph-name="registered" horiz-adv-x="823" d="M513 717T595 670T725 540T773 357Q773 256 726 174T595 43T412 -5Q312 -5 229 43T99 173T51 357Q51 458 98 540T228 669T412 717Q513 717 595 670ZM501 35T573 77T688 193T730 357Q730
446 688 519T574 635T412 677Q323 677 250 635T135 520T93 357Q93 267 135 194T250 78T412 35Q501 35 573 77ZM502 316T524 279L608 143H543L460 279Q446 302 430 310T386 319H325V143H268V569H439Q507 569 544 537T582 445Q582 395 553 364T471 325Q502 316 524
279ZM432 368Q479 368 501 386T524 444Q524 484 502 502T432 521H325V368H432Z" />
<glyph unicode="&#xaf;" glyph-name="overscore" horiz-adv-x="300" d="M2 632V684H301V632H2Z" />
<glyph unicode="&#xb0;" glyph-name="degree" horiz-adv-x="368" d="M144 427T111 446T59 498T39 572Q39 613 58 646T111 698T184 717Q246 717 287 676T328 572Q328 510 287 469T184 427Q144 427 111 446ZM225 474T251 501T278 572Q278 615 252 643T184 671Q142
671 116 643T90 572Q90 528 116 501T184 474Q225 474 251 501Z" />
<glyph unicode="&#xb1;" glyph-name="plusminus" horiz-adv-x="600" d="M325 351H546V301H325V119H275V301H54V351H275V533H325V351ZM54 0V51H546V0H54Z" />
<glyph unicode="&#xb2;" glyph-name="uni00B2" horiz-adv-x="380" d="M332 333V285H55V328L202 491Q231 523 244 549T258 601Q258 634 239 651T185 668Q158 668 127 655T66 619L39 661Q68 686 107 701T189 716Q249 716 282 685T316 603Q316 566 299 533T244 458L128
333H332Z" />
<glyph unicode="&#xb3;" glyph-name="uni00B3" horiz-adv-x="380" d="M284 494T304 468T324 401Q324 345 286 314T184 282Q142 282 102 297T34 338L61 379Q91 356 122 343T182 330Q223 330 246 348T269 404Q269 478 175 478H124V525H165Q209 525 233 544T258 601Q258
634 239 651T186 668Q128 668 66 619L39 661Q68 685 107 700T187 716Q248 716 281 685T315 605Q315 568 297 543T248 504Q284 494 304 468Z" />
<glyph unicode="&#xb4;" glyph-name="acute" horiz-adv-x="300" d="M175 556H128L229 759H307L175 556Z" />
<glyph unicode="&#xb5;" glyph-name="uni00B5" horiz-adv-x="569" d="M486 501V0H427V91Q403 43 359 18T258 -7Q181 -7 140 31V-216H80V501H140V191Q140 117 170 82T263 47Q337 47 381 93T425 217V501H486Z" />
<glyph unicode="&#xb6;" glyph-name="paragraph" horiz-adv-x="574" d="M482 -182H423V659H300V-182H242V326Q185 326 141 350T74 419T50 519Q50 574 74 618T142 687T244 712H482V-182Z" />
<glyph unicode="&#xb7;" glyph-name="middot" horiz-adv-x="222" d="M69 311H154V224H69V311Z" />
<glyph unicode="&#xb8;" glyph-name="cedilla" horiz-adv-x="300" d="M224 -41T246 -59T269 -111Q269 -147 239 -170T157 -193Q135 -193 111 -189T70 -174L84 -135Q117 -149 159 -149Q188 -149 202 -139T217 -111Q217 -97 208 -90T181 -82Q162 -82 132 -92L113
-77L123 20H174L167 -44Q181 -41 194 -41Q224 -41 246 -59Z" />
<glyph unicode="&#xb9;" glyph-name="uni00B9" horiz-adv-x="380" d="M243 333H318V285H112V333H187V645L117 600V661L198 712H243V333Z" />
<glyph unicode="&#xba;" glyph-name="ordmasculine" horiz-adv-x="336" d="M102 412T63 454T24 566Q24 635 63 676T168 717Q233 717 272 676T312 566Q312 496 273 454T168 412Q102 412 63 454ZM210 459T232 486T254 566Q254 616 232 643T168 671Q126 671 104 644T82
566Q82 514 104 487T168 459Q210 459 232 486Z" />
<glyph unicode="&#xbb;" glyph-name="guillemotright" horiz-adv-x="420" d="M91 89H31L158 268L29 447H90L222 267L91 89ZM262 89H202L329 268L200 447H261L393 267L262 89Z" />
<glyph unicode="&#xbc;" glyph-name="onequarter" horiz-adv-x="928" d="M243 333H318V285H112V333H187V645L117 600V661L198 712H243V333ZM277 -23L228 4L651 735L699 708L277 -23ZM903 137V90H839V0H781V90H586V133L791 427H839V137H903ZM643 137H781V334L643 137Z" />
<glyph unicode="&#xbd;" glyph-name="onehalf" horiz-adv-x="928" d="M243 333H318V285H112V333H187V645L117 600V661L198 712H243V333ZM277 -23L228 4L651 735L699 708L277 -23ZM880 48V0H603V43L750 206Q779 238 792 264T806 316Q806 349 787 366T733 383Q706
383 675 370T614 334L587 376Q616 401 655 416T737 431Q797 431 830 400T864 318Q864 281 847 248T792 173L676 48H880Z" />
<glyph unicode="&#xbe;" glyph-name="threequarters" horiz-adv-x="928" d="M284 494T304 468T324 401Q324 345 286 314T184 282Q142 282 102 297T34 338L61 379Q91 356 122 343T182 330Q223 330 246 348T269 404Q269 478 175 478H124V525H165Q209 525 233 544T258
601Q258 634 239 651T186 668Q128 668 66 619L39 661Q68 685 107 700T187 716Q248 716 281 685T315 605Q315 568 297 543T248 504Q284 494 304 468ZM277 -23L228 4L651 735L699 708L277 -23ZM903 137V90H839V0H781V90H586V133L791 427H839V137H903ZM643 137H781V334L643
137Z" />
<glyph unicode="&#xbf;" glyph-name="questiondown" horiz-adv-x="440" d="M193 404V490H279V404H193ZM132 -189T80 -147T28 -38Q28 15 50 50T118 130Q149 161 167 182T199 234T216 302L218 316H256V298Q256 253 244 219T213 160T165 104Q128 65 110 36T92 -35Q92
-79 125 -106T214 -134Q283 -134 352 -94V-154Q288 -189 213 -189Q132 -189 80 -147Z" />
<glyph unicode="&#xc0;" glyph-name="Agrave" horiz-adv-x="727" d="M637 0L556 190H172L90 0H26L336 712H392L701 0H637ZM195 244H532L364 637L195 244ZM340 773L211 924H286L387 773H340Z" />
<glyph unicode="&#xc1;" glyph-name="Aacute" horiz-adv-x="727" d="M637 0L556 190H172L90 0H26L336 712H392L701 0H637ZM195 244H532L364 637L195 244ZM387 773H340L441 924H516L387 773Z" />
<glyph unicode="&#xc2;" glyph-name="Acircumflex" horiz-adv-x="727" d="M637 0L556 190H172L90 0H26L336 712H392L701 0H637ZM195 244H532L364 637L195 244ZM287 773H224L340 924H387L503 773H440L364 882L287 773Z" />
<glyph unicode="&#xc3;" glyph-name="Atilde" horiz-adv-x="727" d="M637 0L556 190H172L90 0H26L336 712H392L701 0H637ZM195 244H532L364 637L195 244ZM205 848T227 876T290 905Q311 905 330 897T376 871Q397 858 410 852T435 845Q458 845 470 862T483 902H522Q522
852 500 824T437 796Q416 796 397 804T351 829Q328 843 316 848T292 854Q269 854 257 838T244 799H205Q205 848 227 876Z" />
<glyph unicode="&#xc4;" glyph-name="Adieresis" horiz-adv-x="727" d="M637 0L556 190H172L90 0H26L336 712H392L701 0H637ZM195 244H532L364 637L195 244ZM242 886H317V813H242V886ZM410 886H485V813H410V886Z" />
<glyph unicode="&#xc5;" glyph-name="Aring" horiz-adv-x="727" d="M556 190H172L90 0H26L326 689Q298 700 281 724T264 779Q264 820 293 848T364 877Q405 877 434 849T464 779Q464 748 447 724T402 689L701 0H637L556 190ZM342 831T328 816T314 779Q314 757 328
742T364 727Q386 727 400 742T414 779Q414 801 400 816T364 831Q342 831 328 816ZM195 244H532L364 637L195 244Z" />
<glyph unicode="&#xc6;" glyph-name="AE" horiz-adv-x="999" d="M945 658H556L581 389H925V334H586L612 54H945V0H562L544 190H186L73 0H6L435 712H945V658ZM539 244L501 658H463L218 244H539Z" />
<glyph unicode="&#xc7;" glyph-name="Ccedilla" horiz-adv-x="684" d="M451 47T502 67T604 134L630 85Q588 41 530 18T402 -8L398 -44Q412 -41 425 -41Q455 -41 477 -59T500 -111Q500 -147 470 -170T388 -193Q366 -193 342 -189T301 -174L315 -135Q348 -149 390
-149Q419 -149 433 -139T448 -111Q448 -97 439 -90T412 -82Q393 -82 363 -92L344 -77L351 -6Q217 6 141 101T65 357Q65 469 104 551T216 676T388 720Q462 720 523 697T630 627L604 578Q553 624 502 644T388 665Q265 665 197 585T129 357Q129 209 196 128T388 47Q451
47 502 67Z" />
<glyph unicode="&#xc8;" glyph-name="Egrave" horiz-adv-x="585" d="M92 0V712H531V659H153V389H511V334H153V53H531V0H92ZM301 773L172 924H247L348 773H301Z" />
<glyph unicode="&#xc9;" glyph-name="Eacute" horiz-adv-x="585" d="M92 0V712H531V659H153V389H511V334H153V53H531V0H92ZM348 773H301L402 924H477L348 773Z" />
<glyph unicode="&#xca;" glyph-name="Ecircumflex" horiz-adv-x="585" d="M92 0V712H531V659H153V389H511V334H153V53H531V0H92ZM248 773H185L301 924H348L464 773H401L325 882L248 773Z" />
<glyph unicode="&#xcb;" glyph-name="Edieresis" horiz-adv-x="585" d="M92 0V712H531V659H153V389H511V334H153V53H531V0H92ZM203 886H278V813H203V886ZM371 886H446V813H371V886Z" />
<glyph unicode="&#xcc;" glyph-name="Igrave" horiz-adv-x="246" d="M92 0V712H154V0H92ZM99 773L-30 924H45L146 773H99Z" />
<glyph unicode="&#xcd;" glyph-name="Iacute" horiz-adv-x="246" d="M92 0V712H154V0H92ZM146 773H99L200 924H275L146 773Z" />
<glyph unicode="&#xce;" glyph-name="Icircumflex" horiz-adv-x="246" d="M92 0V712H154V0H92ZM46 773H-17L99 924H146L262 773H199L123 882L46 773Z" />
<glyph unicode="&#xcf;" glyph-name="Idieresis" horiz-adv-x="246" d="M92 0V712H154V0H92ZM1 886H76V813H1V886ZM169 886H244V813H169V886Z" />
<glyph unicode="&#xd0;" glyph-name="Eth" horiz-adv-x="748" d="M499 712T591 620T683 357Q683 186 591 93T330 0H101V335H6V387H101V712H330Q499 712 591 620ZM472 54T545 130T618 357Q618 658 327 658H163V387H359V335H163V54H327Q472 54 545 130Z" />
<glyph unicode="&#xd1;" glyph-name="Ntilde" horiz-adv-x="742" d="M592 712H650V0H602L150 607V0H92V712H141L592 105V712ZM213 848T235 876T298 905Q319 905 338 897T384 871Q405 858 418 852T443 845Q466 845 478 862T491 902H530Q530 852 508 824T445 796Q424
796 405 804T359 829Q336 843 324 848T300 854Q277 854 265 838T252 799H213Q213 848 235 876Z" />
<glyph unicode="&#xd2;" glyph-name="Ograve" horiz-adv-x="765" d="M285 -8T214 36T104 162T65 356Q65 468 103 550T212 676T382 720Q480 720 552 676T662 551T700 357Q700 245 662 163T552 36T382 -8Q285 -8 214 36ZM502 47T568 128T635 357Q635 505 569 585T382
665Q262 665 196 585T129 357Q129 210 195 129T382 47Q502 47 568 128ZM358 773L229 924H304L405 773H358Z" />
<glyph unicode="&#xd3;" glyph-name="Oacute" horiz-adv-x="765" d="M285 -8T214 36T104 162T65 356Q65 468 103 550T212 676T382 720Q480 720 552 676T662 551T700 357Q700 245 662 163T552 36T382 -8Q285 -8 214 36ZM502 47T568 128T635 357Q635 505 569 585T382
665Q262 665 196 585T129 357Q129 210 195 129T382 47Q502 47 568 128ZM405 773H358L459 924H534L405 773Z" />
<glyph unicode="&#xd4;" glyph-name="Ocircumflex" horiz-adv-x="765" d="M285 -8T214 36T104 162T65 356Q65 468 103 550T212 676T382 720Q480 720 552 676T662 551T700 357Q700 245 662 163T552 36T382 -8Q285 -8 214 36ZM502 47T568 128T635 357Q635 505 569
585T382 665Q262 665 196 585T129 357Q129 210 195 129T382 47Q502 47 568 128ZM305 773H242L358 924H405L521 773H458L382 882L305 773Z" />
<glyph unicode="&#xd5;" glyph-name="Otilde" horiz-adv-x="765" d="M285 -8T214 36T104 162T65 356Q65 468 103 550T212 676T382 720Q480 720 552 676T662 551T700 357Q700 245 662 163T552 36T382 -8Q285 -8 214 36ZM502 47T568 128T635 357Q635 505 569 585T382
665Q262 665 196 585T129 357Q129 210 195 129T382 47Q502 47 568 128ZM223 848T245 876T308 905Q329 905 348 897T394 871Q415 858 428 852T453 845Q476 845 488 862T501 902H540Q540 852 518 824T455 796Q434 796 415 804T369 829Q346 843 334 848T310 854Q287
854 275 838T262 799H223Q223 848 245 876Z" />
<glyph unicode="&#xd6;" glyph-name="Odieresis" horiz-adv-x="765" d="M285 -8T214 36T104 162T65 356Q65 468 103 550T212 676T382 720Q480 720 552 676T662 551T700 357Q700 245 662 163T552 36T382 -8Q285 -8 214 36ZM502 47T568 128T635 357Q635 505 569
585T382 665Q262 665 196 585T129 357Q129 210 195 129T382 47Q502 47 568 128ZM260 886H335V813H260V886ZM428 886H503V813H428V886Z" />
<glyph unicode="&#xd7;" glyph-name="multiply" horiz-adv-x="600" d="M536 487L336 287L536 86L500 51L300 251L100 51L64 86L264 287L64 487L100 523L300 323L500 523L536 487Z" />
<glyph unicode="&#xd8;" glyph-name="Oslash" horiz-adv-x="765" d="M641 605T670 530T700 357Q700 245 662 163T552 36T382 -8Q291 -8 223 31L181 -41L136 -15L180 60Q125 108 95 183T65 356Q65 468 103 550T212 676T382 720Q474 720 542 682L584 753L629 727L585
652Q641 605 670 530ZM129 276T150 214T210 112L514 632Q459 665 382 665Q262 665 196 585T129 357Q129 276 150 214ZM502 47T568 128T635 357Q635 520 555 600L252 80Q306 47 382 47Q502 47 568 128Z" />
<glyph unicode="&#xd9;" glyph-name="Ugrave" horiz-adv-x="726" d="M228 -8T158 63T87 274V712H149V267Q149 47 364 47Q469 47 523 102T578 267V712H639V274Q639 135 569 64T364 -8Q228 -8 158 63ZM340 773L211 924H286L387 773H340Z" />
<glyph unicode="&#xda;" glyph-name="Uacute" horiz-adv-x="726" d="M228 -8T158 63T87 274V712H149V267Q149 47 364 47Q469 47 523 102T578 267V712H639V274Q639 135 569 64T364 -8Q228 -8 158 63ZM387 773H340L441 924H516L387 773Z" />
<glyph unicode="&#xdb;" glyph-name="Ucircumflex" horiz-adv-x="726" d="M228 -8T158 63T87 274V712H149V267Q149 47 364 47Q469 47 523 102T578 267V712H639V274Q639 135 569 64T364 -8Q228 -8 158 63ZM287 773H224L340 924H387L503 773H440L364 882L287 773Z" />
<glyph unicode="&#xdc;" glyph-name="Udieresis" horiz-adv-x="726" d="M228 -8T158 63T87 274V712H149V267Q149 47 364 47Q469 47 523 102T578 267V712H639V274Q639 135 569 64T364 -8Q228 -8 158 63ZM242 886H317V813H242V886ZM410 886H485V813H410V886Z" />
<glyph unicode="&#xdd;" glyph-name="Yacute" horiz-adv-x="597" d="M604 712L329 293V0H267V295L-8 712H64L299 349L534 712H604ZM321 773H274L375 924H450L321 773Z" />
<glyph unicode="&#xde;" glyph-name="Thorn" horiz-adv-x="644" d="M478 551T536 503T595 364Q595 273 536 223T371 173H154V0H92V712H154V551H371Q478 551 536 503ZM450 226T491 260T532 364Q532 432 492 465T367 498H154V226H367Q450 226 491 260Z" />
<glyph unicode="&#xdf;" glyph-name="germandbls" horiz-adv-x="616" d="M581 312T581 154Q581 79 533 36T400 -7Q346 -7 298 10T216 60L241 107Q283 75 321 61T400 46Q459 46 489 73T520 154Q520 214 463 258T263 341V389Q358 427 396 473T434 582Q434 633 403
660T312 688Q229 688 186 643T143 508V0H83V503Q83 618 142 679T311 740Q397 740 445 698T493 581Q493 512 456 461T333 372Q581 312 581 154Z" />
<glyph unicode="&#xe0;" glyph-name="agrave" horiz-adv-x="591" d="M508 501V0H447V96Q425 46 381 20T274 -7Q207 -7 157 24T79 114T51 251Q51 329 79 388T157 480T274 513Q335 513 379 487T447 411V501H508ZM361 47T404 101T447 253Q447 352 404 406T282 460Q203
460 159 405T115 251Q115 154 159 101T283 47Q361 47 404 101ZM272 567L140 770H218L319 567H272Z" />
<glyph unicode="&#xe1;" glyph-name="aacute" horiz-adv-x="591" d="M508 501V0H447V96Q425 46 381 20T274 -7Q207 -7 157 24T79 114T51 251Q51 329 79 388T157 480T274 513Q335 513 379 487T447 411V501H508ZM361 47T404 101T447 253Q447 352 404 406T282 460Q203
460 159 405T115 251Q115 154 159 101T283 47Q361 47 404 101ZM319 567H272L373 770H451L319 567Z" />
<glyph unicode="&#xe2;" glyph-name="acircumflex" horiz-adv-x="591" d="M508 501V0H447V96Q425 46 381 20T274 -7Q207 -7 157 24T79 114T51 251Q51 329 79 388T157 480T274 513Q335 513 379 487T447 411V501H508ZM361 47T404 101T447 253Q447 352 404 406T282
460Q203 460 159 405T115 251Q115 154 159 101T283 47Q361 47 404 101ZM219 567H156L271 770H320L435 567H372L296 719L219 567Z" />
<glyph unicode="&#xe3;" glyph-name="atilde" horiz-adv-x="591" d="M508 501V0H447V96Q425 46 381 20T274 -7Q207 -7 157 24T79 114T51 251Q51 329 79 388T157 480T274 513Q335 513 379 487T447 411V501H508ZM361 47T404 101T447 253Q447 352 404 406T282 460Q203
460 159 405T115 251Q115 154 159 101T283 47Q361 47 404 101ZM137 668T159 696T222 724Q243 724 262 716T308 690Q331 676 343 671T367 665Q390 665 402 681T415 721H454Q454 671 432 643T369 615Q348 615 329 623T283 649Q260 663 248 668T224 674Q201 674 189
658T176 618H137Q137 668 159 696Z" />
<glyph unicode="&#xe4;" glyph-name="adieresis" horiz-adv-x="591" d="M508 501V0H447V96Q425 46 381 20T274 -7Q207 -7 157 24T79 114T51 251Q51 329 79 388T157 480T274 513Q335 513 379 487T447 411V501H508ZM361 47T404 101T447 253Q447 352 404 406T282
460Q203 460 159 405T115 251Q115 154 159 101T283 47Q361 47 404 101ZM174 706H249V632H174V706ZM342 706H417V632H342V706Z" />
<glyph unicode="&#xe5;" glyph-name="aring" horiz-adv-x="591" d="M508 501V0H447V96Q425 46 381 20T274 -7Q207 -7 157 24T79 114T51 251Q51 329 79 388T157 480T274 513Q335 513 379 487T447 411V501H508ZM361 47T404 101T447 253Q447 352 404 406T282 460Q203
460 159 405T115 251Q115 154 159 101T283 47Q361 47 404 101ZM254 571T225 599T196 669Q196 709 225 737T296 765Q337 765 366 737T395 669Q395 627 366 599T296 571Q254 571 225 599ZM318 616T332 631T346 669Q346 690 332 705T296 720Q274 720 260 705T245 669Q245
646 259 631T296 616Q318 616 332 631Z" />
<glyph unicode="&#xe6;" glyph-name="ae" horiz-adv-x="886" d="M466 258V254Q466 154 512 101T645 47Q729 47 806 109L829 61Q796 31 746 12T646 -7Q568 -7 514 28T433 131Q415 66 366 30T248 -7Q197 -7 156 13T91 68T67 150Q67 206 95 239T188 289T363 305H404V324Q404
396 377 428T286 460Q199 460 111 405L88 452Q125 480 178 496T283 513Q416 513 451 413Q480 461 527 487T633 513Q729 513 783 449T838 269V258H466ZM566 463T524 421T470 305H781Q774 382 736 422T632 463Q566 463 524 421ZM319 46T361 93T404 215V258H365Q276
258 225 248T153 214T131 153Q131 105 165 76T252 46Q319 46 361 93Z" />
<glyph unicode="&#xe7;" glyph-name="ccedilla" horiz-adv-x="490" d="M433 31T389 13T298 -7L294 -44Q308 -41 321 -41Q351 -41 373 -59T396 -111Q396 -147 366 -170T284 -193Q262 -193 238 -189T197 -174L211 -135Q244 -149 286 -149Q315 -149 329 -139T344
-111Q344 -97 335 -90T308 -82Q289 -82 259 -92L240 -77L247 -4Q156 8 104 76T51 251Q51 329 80 388T163 480T288 513Q339 513 385 496T462 447L438 399Q399 431 364 445T290 460Q209 460 162 405T115 251Q115 155 161 101T290 47Q328 47 363 61T438 107L462 60Q433
31 389 13Z" />
<glyph unicode="&#xe8;" glyph-name="egrave" horiz-adv-x="543" d="M115 258V255Q115 154 161 101T297 47Q387 47 462 109L486 61Q453 30 402 12T297 -7Q183 -7 117 62T51 252Q51 329 80 388T163 480T285 513Q384 513 439 449T495 271V258H115ZM216 463T173 422T119
305H437Q431 382 392 422T285 463Q216 463 173 422ZM261 567L129 770H207L308 567H261Z" />
<glyph unicode="&#xe9;" glyph-name="eacute" horiz-adv-x="543" d="M115 258V255Q115 154 161 101T297 47Q387 47 462 109L486 61Q453 30 402 12T297 -7Q183 -7 117 62T51 252Q51 329 80 388T163 480T285 513Q384 513 439 449T495 271V258H115ZM216 463T173 422T119
305H437Q431 382 392 422T285 463Q216 463 173 422ZM308 567H261L362 770H440L308 567Z" />
<glyph unicode="&#xea;" glyph-name="ecircumflex" horiz-adv-x="543" d="M115 258V255Q115 154 161 101T297 47Q387 47 462 109L486 61Q453 30 402 12T297 -7Q183 -7 117 62T51 252Q51 329 80 388T163 480T285 513Q384 513 439 449T495 271V258H115ZM216 463T173
422T119 305H437Q431 382 392 422T285 463Q216 463 173 422ZM208 567H145L260 770H309L424 567H361L285 719L208 567Z" />
<glyph unicode="&#xeb;" glyph-name="edieresis" horiz-adv-x="543" d="M115 258V255Q115 154 161 101T297 47Q387 47 462 109L486 61Q453 30 402 12T297 -7Q183 -7 117 62T51 252Q51 329 80 388T163 480T285 513Q384 513 439 449T495 271V258H115ZM216 463T173
422T119 305H437Q431 382 392 422T285 463Q216 463 173 422ZM163 706H238V632H163V706ZM331 706H406V632H331V706Z" />
<glyph unicode="&#xec;" glyph-name="igrave" horiz-adv-x="228" d="M83 0V501H143V0H83ZM91 567L-41 770H37L138 567H91Z" />
<glyph unicode="&#xed;" glyph-name="iacute" horiz-adv-x="228" d="M83 0V501H143V0H83ZM138 567H91L192 770H270L138 567Z" />
<glyph unicode="&#xee;" glyph-name="icircumflex" horiz-adv-x="228" d="M83 0V501H143V0H83ZM38 567H-25L90 770H139L254 567H191L115 719L38 567Z" />
<glyph unicode="&#xef;" glyph-name="idieresis" horiz-adv-x="228" d="M83 0V501H143V0H83ZM-7 706H68V632H-7V706ZM161 706H236V632H161V706Z" />
<glyph unicode="&#xf0;" glyph-name="eth" horiz-adv-x="566" d="M515 495T515 294Q515 146 456 70T280 -7Q212 -7 160 22T80 106T51 231Q51 303 79 357T160 440T280 470Q397 470 450 385Q431 510 348 593L187 530L172 574L307 627Q246 671 164 695L181 742Q290
711 365 649L497 701L512 657L402 614Q515 495 515 294ZM359 47T403 96T448 231Q448 318 404 367T282 416Q203 416 159 368T115 231Q115 142 158 95T281 47Q359 47 403 96Z" />
<glyph unicode="&#xf1;" glyph-name="ntilde" horiz-adv-x="578" d="M497 513T497 319V0H436V315Q436 390 406 425T310 460Q235 460 189 414T143 290V0H83V362Q83 440 75 501H133L141 409Q164 460 210 486T316 513Q497 513 497 319ZM130 668T152 696T215 724Q236
724 255 716T301 690Q324 676 336 671T360 665Q383 665 395 681T408 721H447Q447 671 425 643T362 615Q341 615 322 623T276 649Q253 663 241 668T217 674Q194 674 182 658T169 618H130Q130 668 152 696Z" />
<glyph unicode="&#xf2;" glyph-name="ograve" horiz-adv-x="562" d="M213 -7T161 25T80 116T51 253Q51 331 79 390T160 481T282 513Q350 513 402 481T482 390T511 253Q511 175 483 116T402 25T282 -7Q213 -7 161 25ZM361 47T404 100T448 253Q448 351 404 405T282
460Q203 460 159 406T115 253Q115 153 158 100T281 47Q361 47 404 100ZM258 567L126 770H204L305 567H258Z" />
<glyph unicode="&#xf3;" glyph-name="oacute" horiz-adv-x="562" d="M213 -7T161 25T80 116T51 253Q51 331 79 390T160 481T282 513Q350 513 402 481T482 390T511 253Q511 175 483 116T402 25T282 -7Q213 -7 161 25ZM361 47T404 100T448 253Q448 351 404 405T282
460Q203 460 159 406T115 253Q115 153 158 100T281 47Q361 47 404 100ZM305 567H258L359 770H437L305 567Z" />
<glyph unicode="&#xf4;" glyph-name="ocircumflex" horiz-adv-x="562" d="M213 -7T161 25T80 116T51 253Q51 331 79 390T160 481T282 513Q350 513 402 481T482 390T511 253Q511 175 483 116T402 25T282 -7Q213 -7 161 25ZM361 47T404 100T448 253Q448 351 404
405T282 460Q203 460 159 406T115 253Q115 153 158 100T281 47Q361 47 404 100ZM205 567H142L257 770H306L421 567H358L282 719L205 567Z" />
<glyph unicode="&#xf5;" glyph-name="otilde" horiz-adv-x="562" d="M213 -7T161 25T80 116T51 253Q51 331 79 390T160 481T282 513Q350 513 402 481T482 390T511 253Q511 175 483 116T402 25T282 -7Q213 -7 161 25ZM361 47T404 100T448 253Q448 351 404 405T282
460Q203 460 159 406T115 253Q115 153 158 100T281 47Q361 47 404 100ZM123 668T145 696T208 724Q229 724 248 716T294 690Q317 676 329 671T353 665Q376 665 388 681T401 721H440Q440 671 418 643T355 615Q334 615 315 623T269 649Q246 663 234 668T210 674Q187
674 175 658T162 618H123Q123 668 145 696Z" />
<glyph unicode="&#xf6;" glyph-name="odieresis" horiz-adv-x="562" d="M213 -7T161 25T80 116T51 253Q51 331 79 390T160 481T282 513Q350 513 402 481T482 390T511 253Q511 175 483 116T402 25T282 -7Q213 -7 161 25ZM361 47T404 100T448 253Q448 351 404 405T282
460Q203 460 159 406T115 253Q115 153 158 100T281 47Q361 47 404 100ZM160 706H235V632H160V706ZM328 706H403V632H328V706Z" />
<glyph unicode="&#xf7;" glyph-name="divide" horiz-adv-x="600" d="M251 444V534H337V444H251ZM546 312V261H54V312H546ZM251 39V129H337V39H251Z" />
<glyph unicode="&#xf8;" glyph-name="oslash" horiz-adv-x="562" d="M469 426T490 373T511 253Q511 175 483 116T402 25T282 -7Q223 -7 173 18L138 -42L96 -17L132 46Q93 80 72 133T51 253Q51 331 79 390T160 481T282 513Q341 513 389 488L423 547L467 524L430
460Q469 426 490 373ZM114 148T161 96L362 441Q328 460 282 460Q203 460 159 406T114 253Q114 148 161 96ZM361 47T404 100T448 253Q448 354 401 410L200 65Q234 47 281 47Q361 47 404 100Z" />
<glyph unicode="&#xf9;" glyph-name="ugrave" horiz-adv-x="569" d="M486 501V0H427V91Q403 43 359 18T258 -7Q170 -7 125 42T80 187V501H140V191Q140 117 170 82T263 47Q337 47 381 93T425 217V501H486ZM260 567L128 770H206L307 567H260Z" />
<glyph unicode="&#xfa;" glyph-name="uacute" horiz-adv-x="569" d="M486 501V0H427V91Q403 43 359 18T258 -7Q170 -7 125 42T80 187V501H140V191Q140 117 170 82T263 47Q337 47 381 93T425 217V501H486ZM307 567H260L361 770H439L307 567Z" />
<glyph unicode="&#xfb;" glyph-name="ucircumflex" horiz-adv-x="569" d="M486 501V0H427V91Q403 43 359 18T258 -7Q170 -7 125 42T80 187V501H140V191Q140 117 170 82T263 47Q337 47 381 93T425 217V501H486ZM207 567H144L259 770H308L423 567H360L284 719L207 567Z" />
<glyph unicode="&#xfc;" glyph-name="udieresis" horiz-adv-x="569" d="M486 501V0H427V91Q403 43 359 18T258 -7Q170 -7 125 42T80 187V501H140V191Q140 117 170 82T263 47Q337 47 381 93T425 217V501H486ZM162 706H237V632H162V706ZM330 706H405V632H330V706Z" />
<glyph unicode="&#xfd;" glyph-name="yacute" horiz-adv-x="525" d="M508 501L272 -52Q237 -134 185 -172T53 -227L41 -179Q113 -162 149 -135T211 -50L232 -1L18 501H83L264 61L446 501H508ZM286 567H239L340 770H418L286 567Z" />
<glyph unicode="&#xfe;" glyph-name="thorn" horiz-adv-x="591" d="M381 513T431 482T511 391T540 251Q540 171 512 113T432 24T317 -7Q254 -7 210 20T143 100V-216H83V736H143V407Q165 459 210 486T317 513Q381 513 431 482ZM389 47T432 101T476 251Q476 348
433 404T310 460Q230 460 187 406T144 253Q144 155 187 101T309 47Q389 47 432 101Z" />
<glyph unicode="&#xff;" glyph-name="ydieresis" horiz-adv-x="525" d="M508 501L272 -52Q237 -134 185 -172T53 -227L41 -179Q113 -162 149 -135T211 -50L232 -1L18 501H83L264 61L446 501H508ZM141 706H216V632H141V706ZM309 706H384V632H309V706Z" />
<glyph unicode="&#x2013;" glyph-name="endash" horiz-adv-x="505" d="M0 246V290H505V246H0Z" />
<glyph unicode="&#x2014;" glyph-name="emdash" horiz-adv-x="1010" d="M0 246V290H1010V246H0Z" />
<glyph unicode="&#x2018;" glyph-name="quoteleft" horiz-adv-x="222" d="M154 610V524H69V588Q69 626 80 657T120 717L153 693Q133 670 125 651T114 610H154Z" />
<glyph unicode="&#x2019;" glyph-name="quoteright" horiz-adv-x="222" d="M154 712V648Q154 610 142 579T102 518L70 543Q104 581 108 625H69V712H154Z" />
<glyph unicode="&#x201a;" glyph-name="quotesinglbase" horiz-adv-x="222" d="M154 87V23Q154 -15 142 -47T102 -107L70 -82Q104 -44 108 0H69V87H154Z" />
<glyph unicode="&#x201c;" glyph-name="quotedblleft" horiz-adv-x="378" d="M154 610V524H69V588Q69 626 80 657T120 717L153 693Q133 670 125 651T114 610H154ZM310 610V524H225V588Q225 626 236 657T276 717L309 693Q289 670 281 651T270 610H310Z" />
<glyph unicode="&#x201d;" glyph-name="quotedblright" horiz-adv-x="378" d="M154 712V648Q154 610 142 579T102 518L70 543Q104 581 108 625H69V712H154ZM310 712V648Q310 610 298 579T258 518L226 543Q260 581 264 625H225V712H310Z" />
<glyph unicode="&#x201e;" glyph-name="quotedblbase" horiz-adv-x="378" d="M154 87V23Q154 -15 142 -47T102 -107L70 -82Q104 -44 108 0H69V87H154ZM310 87V23Q310 -15 298 -47T258 -107L226 -82Q260 -44 264 0H225V87H310Z" />
<glyph unicode="&#x2022;" glyph-name="bullet" horiz-adv-x="529" d="M216 89T174 112T107 177T82 268Q82 314 106 355T172 422T265 447Q313 447 355 424T422 359T447 268Q447 219 423 178T356 113T265 89Q216 89 174 112Z" />
<glyph unicode="&#x2039;" glyph-name="guilsinglleft" horiz-adv-x="249" d="M159 89L28 267L161 447H221L93 268L218 89H159Z" />
<glyph unicode="&#x203a;" glyph-name="guilsinglright" horiz-adv-x="249" d="M91 89H31L158 268L29 447H90L222 267L91 89Z" />
</font>
</defs>
</svg>
